Начать новую тему Ответить на тему
Статистика раздачи
Размер: 463.43 МБ | Добавлен: 16 мар 2014, 00:47 | Скачали: 0
Сидеров: 3  [0 байт/сек]    Личеров: 1  [0 байт/сек]
Пред. тема | След. тема 

Автор
Сообщение

СообщениеДобавлено: 16 мар 2014, 00:47 

Ответить с цитатой 

3 Doors Down - Time Of My Life (2011)

Год: 2011
Жанр: Alternative Rock / Post-Grunge
Продолжительность: 00:56:25

Кодек: APE
Битрейт: Lossless
Тип рипа: image+cue
Label: Universal Republic Records
Catalog No: B0015518-02
Наличие сканов: Да,400 dpi

Треклист:
01.Time Of My Life
02.When You're Young
03.Round And Round
04.Heaven
05.Race For The Sun
06.Back To Me
07.Every Time You Go
08.What's Left
09.On The Run
10.She Is Love
11.My Way
12.Believer
13.When You're Young (Acoustic) (Bonus Track)
14.Every Time You Go (Acoustic) (Bonus Track)
15.The Silence Remains (Bonus Track)
16.Train (Demo) (Bonus Track)
Код:
Код:
Exact Audio Copy V1.0 beta 1 from 15. November 2010

EAC extraction logfile from 30. January 2012, 19:05

3 Doors Down / Time Of My Life

Used drive  : PIONEER DVD-RW  DVR-112D   Adapter: 1  ID: 1

Read mode               : Secure
Utilize accurate stream : Yes
Defeat audio cache      : Yes
Make use of C2 pointers : No

Read offset correction                      : 48
Overread into Lead-In and Lead-Out          : No
Fill up missing offset samples with silence : Yes
Delete leading and trailing silent blocks   : No
Null samples used in CRC calculations       : Yes
Used interface                              : Native Win32 interface for Win NT & 2000

Used output format              : Monkey's Audio (без потерь)
Selected bitrate                : High Lossless Compression
Quality                         : High
Add ID3 tag                     : No
Command line compressor         : C:\Program Files\Monkey's Audio\MAC.exe

TOC of the extracted CD

     Track |   Start  |  Length  | Start sector | End sector
    ---------------------------------------------------------
        1  |  0:00.00 |  3:23.25 |         0    |    15249
        2  |  3:23.25 |  4:16.00 |     15250    |    34449
        3  |  7:39.25 |  3:46.10 |     34450    |    51409
        4  | 11:25.35 |  3:27.15 |     51410    |    66949
        5  | 14:52.50 |  2:59.10 |     66950    |    80384
        6  | 17:51.60 |  3:42.40 |     80385    |    97074
        7  | 21:34.25 |  3:48.30 |     97075    |   114204
        8  | 25:22.55 |  3:42.40 |    114205    |   130894
        9  | 29:05.20 |  3:08.20 |    130895    |   145014
       10  | 32:13.40 |  3:16.30 |    145015    |   159744
       11  | 35:29.70 |  3:07.35 |    159745    |   173804
       12  | 38:37.30 |  2:58.15 |    173805    |   187169
       13  | 41:35.45 |  4:18.40 |    187170    |   206559
       14  | 45:54.10 |  3:48.60 |    206560    |   223719
       15  | 49:42.70 |  3:39.35 |    223720    |   240179
       16  | 53:22.30 |  3:03.25 |    240180    |   253929

Range status and errors

Selected range

     Filename D:\EAC copy\3 Doors Down_Time Of My Life_2011\3 Doors Down - Time Of My Life.wav

     Peak level 100.0 %
     Extraction speed 0.3 X
     Range quality 99.9 %
     Test CRC 6B0342C3
     Copy CRC 6B0342C3
     Copy OK

No errors occurred

AccurateRip summary

Track  1  not present in database
Track  2  not present in database
Track  3  not present in database
Track  4  not present in database
Track  5  not present in database
Track  6  not present in database
Track  7  not present in database
Track  8  not present in database
Track  9  not present in database
Track 10  not present in database
Track 11  not present in database
Track 12  not present in database
Track 13  not present in database
Track 14  not present in database
Track 15  not present in database
Track 16  not present in database

None of the tracks are present in the AccurateRip database

End of status report

==== Log checksum 321C29F757DD75110FA208B55B28FF63B7237E7B4C8B5641F8FDA19EF1CA5198 ====

Код:
Код:
-----------------------

DON'T MODIFY THIS FILE

-----------------------

PERFORMER: auCDtect Task Manager, ver. 1.5.1RC4 build 1.5.1.5
Copyright (c) 2008-2010 y-soft. All rights reserved
http:/y-soft.org

ANALYZER: auCDtect: CD records authenticity detector, version 0.8.2
Copyright (c) 2004 Oleg Berngardt. All rights reserved.
Copyright (c) 2004 Alexander Djourik. All rights reserved.

FILE: 3 Doors Down - Time Of My Life.ape
  Size: 426259324 Hash: 9790299C897328E3E60A0F0D94293020 Accuracy: -m0
  Conclusion: CDDA 100%
  Signature: A5D946B9E0EDF7631001981B74D59B49465D7BEB

Правила, инструкции, FAQ!!!
Торрент  Добавлен [16 мар 2014, 00:47] Скачать торрент Магнет ссылка
Скачать торрент
[ Размер 19.73 КБ / Просмотров 58 ]

Статус  
 
Размер  463.43 МБ
Приватный: Нет (DHT включён)
.torrent скачан  0
 


     Отправить личное сообщение
   
Страница 1 из 1
Показать сообщения за:  Поле сортировки  
Начать новую тему Ответить на тему


Сейчас этот форум просматривают: нет зарегистрированных пользователей и гости: 0


Вы не можете начинать темы
Вы не можете отвечать на сообщения
Вы не можете редактировать свои сообщения
Вы не можете удалять свои сообщения
Вы не можете добавлять вложения

Перейти:  
cron
cron